【UHD】灌篮高手主题曲-想大声说喜欢你

 

[视频信息]
视频编码: AVC1 – Native D3D9 DXVA Decoder(VLD) – Intel(R) UHD Graphics 630
输入格式: AVC1(24 bits)
输入尺寸: 1920 × 1080(1.78:1)
输出格式: dxva
输出尺寸: 1920 × 1080(1.78:1)
帧率: 30
BitRate: 未知

[音频信息]
音频编码: AAC(0xaac0) – 内置 FFmpeg 解码器(aac)
采样率: 44100 -> 44100 Hz
位率: 16 -> 16 位
声道数: 2 -> 2 声道
Bitrate: 127 kbps

General
Format : MPEG-4
Format profile : Base Media
Codec ID : isom (isom/iso2/avc1/mp41)
File size : 39.6 MiB
Duration : 1 min 44 s
Overall bit rate : 3 167 kb/s
Writing application : Lavf58.26.101

Video
ID : 1
Format : AVC
Format/Info : Advanced Video Codec
Format profile : High@L4
Format settings : CABAC / 3 Ref Frames
Format settings, CABAC : Yes
Format settings, Reference fra : 3 frames
Codec ID : avc1
Codec ID/Info : Advanced Video Coding
Duration : 1 min 44 s
Bit rate : 3 034 kb/s
Width : 1 920 pixels
Height : 1 080 pixels
Display aspect ratio : 16:9
Frame rate mode : Constant
Frame rate : 30.000 FPS
Color space : YUV
Chroma subsampling : 4:2:0
Bit depth : 8 bits
Scan type : Progressive
Bits/(Pixel*Frame) : 0.049
Stream size : 37.9 MiB (96%)
Title : ISO Media file produced by Google Inc.
Color range : Limited
Color primaries : BT.709
Transfer characteristics : BT.709
Matrix coefficients : BT.709
Codec configuration box : avcC

Audio
ID : 2
Format : AAC LC
Format/Info : Advanced Audio Codec Low Complexity
Codec ID : mp4a-40-2
Duration : 1 min 44 s
Bit rate mode : Constant
Bit rate : 128 kb/s
Channel(s) : 2 channels
Channel layout : L R
Sampling rate : 44.1 kHz
Frame rate : 43.066 FPS (1024 SPF)
Compression mode : Lossy
Stream size : 1.60 MiB (4%)
Title : ISO Media file produced by Google Inc.
Default : Yes
Alternate group : 1

 

发表评论

您的电子邮箱地址不会被公开。 必填项已用*标注

本站所有资源版权均属于原作者所有,这里所提供资源均只能用于参考学习用,若由于商用引起版权纠纷,一切责任均由使用者承担。

最常见的情况是下载不完整: 可对比下载完压缩包的与网盘上的容量,若小于网盘提示的容量则是这个原因。这是浏览器下载的bug,建议用IDM或迅雷。 若排除这种情况,可在对应资源底部留言,或联络我们。

如果您已经成功付款但是网站没有弹出成功提示,请联系站长提供付款信息为您处理

本站素材属于虚拟商品,具有可复制性,可传播性,一旦授予,不接受任何形式的退款、换货要求。请您在购买获取之前确认好 是您所需要的资源